<?xml version="1.0" standalone="no"?>
<!DOCTYPE svg PUBLIC "-//W3C//DTD SVG 1.1//EN" "http://www.w3.org/Graphics/SVG/1.1/DTD/svg11.dtd" >
<svg xmlns="http://www.w3.org/2000/svg">
<metadata>
This is a custom SVG webfont generated by Font Squirrel.
Copyright   : Copyright c 1991 Adobe Systems Incorporated All Rights ReservedBerthold Akzidenz Grotesk is a registered trademark of H Berthold AG
</metadata>
<defs>
<font id="BertholdAkzidenzGroteskBEMd" horiz-adv-x="1150" >
<font-face units-per-em="2048" ascent="1638" descent="-410" />
<missing-glyph horiz-adv-x="555" />
<glyph unicode=" "  horiz-adv-x="555" />
<glyph unicode="&#x09;" horiz-adv-x="555" />
<glyph unicode="&#xa0;" horiz-adv-x="555" />
<glyph unicode="!" horiz-adv-x="512" d="M164 0v283h268v-283h-268zM164 893v553h268v-553l-78 -533h-114z" />
<glyph unicode="&#x22;" horiz-adv-x="811" d="M66 1413q0 53 37.5 87t97.5 34q66 0 98 -47q25 -35 16 -94l-94 -531h-55l-96 506q-4 33 -4 45zM492 1413q0 51 37.5 86t97.5 35q78 0 106 -59q14 -25 10 -82l-96 -531h-55l-96 506q-4 33 -4 45z" />
<glyph unicode="#" horiz-adv-x="1366" d="M86 438v203h279l24 195h-256v204h283l55 408h213l-57 -408h200l56 408h207l-56 -408h240v-204h-266l-29 -195h252v-203h-277l-63 -438h-207l64 438h-203l-62 -438h-209l62 438h-250zM569 641h205l27 195h-203z" />
<glyph unicode="$" horiz-adv-x="1280" d="M74 272l207 158q127 -172 266 -184v391q-35 4 -63.5 8t-87 17.5t-102.5 40t-89 64.5t-69.5 99.5t-24.5 139.5q0 129 71 231q106 150 365 190v222h188v-222q276 -31 441 -223l-193 -153q-43 53 -91 86.5t-74.5 43t-82.5 23.5v-327q92 -16 161 -40t144.5 -70t117.5 -127 t42 -191q0 -195 -139 -320q-115 -102 -326 -129v-233h-188v233q-55 10 -87 17.5t-91.5 28t-102.5 46t-96 72.5t-96 108zM381 1047q0 -55 38 -88t128 -50v295q-78 -12 -122 -56t-44 -101zM735 242q86 16 141.5 68t55.5 122q0 137 -197 176v-366z" />
<glyph unicode="%" horiz-adv-x="1792" d="M53 926q0 291 142 403q82 66 196 66q104 0 182 -56q139 -102 146 -401q0 -164 -31 -252q-82 -225 -305 -225q-102 0 -174 49q-156 105 -156 416zM238 918q0 -297 151 -297q35 0 61.5 14t41 44t24.5 57.5t13 70.5t4.5 66.5t1.5 62.5q0 55 -3.5 91t-15.5 93.5t-45 88 t-84 30.5q-149 1 -149 -321zM487 -10l648 1396l137 -63l-643 -1397zM1075 459q0 293 152 403q78 57 186 58q94 0 164 -46q57 -37 93 -92t49.5 -126.5t16.5 -106.5t5 -92q0 -166 -35 -258q-82 -213 -299 -213q-113 0 -193 61q-139 107 -139 412zM1260 442q0 -297 147 -297 q51 0 84 29t46 82t16 94t3 101q0 55 -3 92t-15 96t-45 91t-84 32q-55 0 -92 -41q-35 -37 -47 -127q-10 -64 -10 -152z" />
<glyph unicode="&#x26;" horiz-adv-x="1323" d="M88 377q0 143 83 242.5t232 185.5q-63 98 -63 213q0 156 95 247t239 91q152 0 243 -93.5t91 -213.5q0 -94 -63.5 -187.5t-209.5 -142.5q18 -35 93 -144.5t96 -132.5q61 90 75 228h236q-35 -242 -168 -406q59 -63 145 -63q25 0 45 4v-205q-90 -6 -104 -6q-164 0 -258 84 q-162 -109 -348 -109q-127 0 -222.5 41t-143.5 106.5t-70.5 131.5t-22.5 129zM336 393q0 -88 64.5 -149.5t160.5 -61.5q109 0 199 78l-246 363q-86 -49 -132 -100.5t-46 -129.5zM571 1055q0 -59 62 -156q35 12 53.5 19.5t48 26t44 45t14.5 63.5q0 47 -31 77.5t-80 30.5 t-80 -28.5t-31 -77.5z" />
<glyph unicode="'" horiz-adv-x="425" d="M88 1413q0 59 41 90t92 31q63 0 101 -47q20 -29 16 -94l-96 -531h-56l-96 506q-2 16 -2 45z" />
<glyph unicode="(" horiz-adv-x="724" d="M96 711q0 281 160 530q131 203 344 369l72 -103q-158 -166 -226 -395q-63 -215 -63 -481q0 -225 79 -413.5t210 -301.5l-60 -102q-117 63 -217 173.5t-157 205.5q-142 233 -142 518z" />
<glyph unicode=")" horiz-adv-x="724" d="M53 -84q156 156 226 395q63 213 63 482q0 225 -79 412.5t-210 301.5l60 103q119 -63 219 -174t155 -205q141 -238 142 -518q0 -285 -160 -531q-133 -205 -344 -368z" />
<glyph unicode="*" horiz-adv-x="768" d="M72 1169l45 136l159 -52l66 -55l-33 84v164h144v-164l-35 -84l65 55l162 62l51 -131l-170 -66l-88 10l78 -47l111 -141l-111 -86l-110 137l-25 90l-19 -90l-100 -137l-115 86l101 141l61 37h-71z" />
<glyph unicode="+" horiz-adv-x="1366" d="M86 492v208h494v494h211v-494h489v-208h-489v-492h-211v492h-494z" />
<glyph unicode="," horiz-adv-x="425" d="M76 0v281h272v-248q0 -72 -3 -103.5t-19.5 -69.5t-51.5 -69q-55 -49 -182 -76v119q111 14 111 166h-127z" />
<glyph unicode="-" horiz-adv-x="724" d="M109 528v230h507v-230h-507z" />
<glyph unicode="." horiz-adv-x="425" d="M76 0v281h270v-281h-270z" />
<glyph unicode="/" horiz-adv-x="980" d="M27 0l688 1446h241l-686 -1446h-243z" />
<glyph unicode="0" d="M74 684q0 356 123 526q61 84 162.5 139.5t228.5 55.5q248 0 381 -201q115 -172 114 -506q0 -109 -10 -195.5t-38.5 -185t-92 -174t-158.5 -118.5q-92 -43 -209 -43q-264 0 -401 215q-100 159 -100 487zM340 680q0 -80 4 -137.5t17.5 -125t39 -109.5t71.5 -70.5t110 -28.5 q137 0 187 121t50 360q0 246 -54 368t-179 122q-80 0 -131.5 -42t-75 -122t-31.5 -156t-8 -180z" />
<glyph unicode="1" d="M154 961v157h26q53 0 83 3t81 16.5t83 40t63.5 79t48.5 125.5h204v-1382h-251v791q0 109 -16.5 139.5t-96.5 30.5h-225z" />
<glyph unicode="2" d="M117 0v199q213 145 432 370q55 57 90 99.5t74 126.5t39 168q0 88 -46.5 147t-136.5 59q-57 0 -98 -23.5t-58.5 -60t-28.5 -80.5t-9 -84t0 -71l-258 22q0 244 116 383q129 150 357 150q199 0 321.5 -119t122.5 -313q0 -154 -76.5 -276t-212.5 -244q-184 -160 -292 -240 h604v-213h-940z" />
<glyph unicode="3" d="M96 453h273q-2 -14 -2 -43q0 -90 58 -147.5t159 -57.5q109 0 162 64.5t53 154.5q0 123 -94 174q-49 29 -148 29l-68 -2v215q86 -2 113 -2q166 10 166 163q0 74 -47 125.5t-129 51.5q-63 0 -106.5 -28t-60.5 -73t-22.5 -72.5t-7.5 -58.5l-270 58q37 195 151 290 q131 111 324 111q63 0 132 -17.5t141.5 -54.5t119.5 -113.5t47 -181.5q0 -127 -75 -213q-49 -55 -154 -84q102 -20 182 -101t80 -230q0 -186 -131 -307t-362 -121q-227 0 -349 114q-135 124 -135 357z" />
<glyph unicode="4" d="M35 319v181l606 884h250v-856h180v-209h-180v-319h-250v319h-606zM299 528h342l14 549z" />
<glyph unicode="5" d="M74 387l286 21q4 -100 59.5 -152.5t139.5 -52.5q74 0 121 33q47 31 75.5 98t28.5 147q0 123 -65.5 191.5t-163.5 68.5q-158 0 -207 -129l-231 15l98 759h768l-20 -231h-539l-47 -305q102 102 266 102q186 0 303 -127t117 -333q0 -221 -137.5 -365.5t-376.5 -144.5 q-150 0 -262 57q-190 100 -213 348z" />
<glyph unicode="6" d="M98 651q0 53 3 103.5t14.5 129.5t31 145.5t58.5 139t92 121.5t134 82t181 33q127 0 220.5 -51t144.5 -131q41 -66 57 -162l-262 -37q-2 84 -52 120t-110 36q-72 0 -121 -38t-73.5 -107.5t-35.5 -134t-15 -148.5q111 139 290 139q162 0 279 -111.5t117 -318.5 q0 -211 -132.5 -345t-332.5 -134q-252 0 -381 196q-107 162 -107 473zM389 436q0 -27 5 -55.5t22.5 -71.5t62.5 -70.5t111 -27.5q106 0 154.5 66.5t48.5 156.5q0 102 -52.5 163.5t-144.5 61.5q-100 0 -153.5 -64.5t-53.5 -158.5z" />
<glyph unicode="7" d="M131 1145v241h918v-223q-403 -502 -465 -1163h-338q53 307 133 506q72 174 150.5 303t226.5 336h-625z" />
<glyph unicode="8" d="M59 397q0 76 23.5 136.5t67 98.5t71 55.5t66.5 35.5q-98 47 -138 133t-40 168q0 166 129 273.5t346 107.5q213 0 342 -106.5t129 -286.5q0 -201 -181 -289q213 -106 213 -326q0 -186 -145 -300.5t-373 -114.5q-233 0 -371.5 116.5t-138.5 298.5zM348 406 q0 -90 61.5 -143.5t172.5 -53.5q102 0 166.5 52t64.5 147q0 20 -5 42.5t-24.5 62.5t-72 65.5t-129.5 25.5q-76 0 -128.5 -23.5t-73 -61.5t-26.5 -63t-6 -50zM371 993q0 -41 12 -76.5t63.5 -70.5t137.5 -35q109 0 155.5 55.5t46.5 126.5q0 104 -62 145.5t-142 41.5 q-117 2 -164 -55.5t-47 -131.5z" />
<glyph unicode="9" d="M102 330l281 41q8 -53 23 -78q41 -86 143 -86q84 0 138 72.5t71.5 157.5t17.5 177q-33 -47 -105.5 -83.5t-170.5 -36.5q-172 0 -285 112.5t-113 321.5q0 231 137.5 354t331.5 123q141 0 244 -62q242 -150 242 -598q0 -367 -142.5 -565t-396.5 -198q-100 0 -182 36.5 t-115 69.5t-55 70q-44 68 -64 172zM369 954q0 -106 51 -172.5t143 -66.5q14 0 29.5 2t47.5 14t55.5 32.5t42 67t18.5 109.5q0 106 -49.5 174t-143.5 68q-78 0 -136 -57.5t-58 -170.5z" />
<glyph unicode=":" horiz-adv-x="512" d="M160 0v281h270v-281h-270zM160 762v280h270v-280h-270z" />
<glyph unicode=";" horiz-adv-x="512" d="M160 0v281h272v-261q0 -98 -11 -141t-59 -86q-63 -53 -188 -80v123q45 6 70 29q20 18 30.5 42.5t11.5 40t1 52.5h-127zM160 760v282h272v-282h-272z" />
<glyph unicode="&#x3c;" horiz-adv-x="1366" d="M0 614v213l1366 625v-231l-1083 -500l1083 -498v-229z" />
<glyph unicode="=" horiz-adv-x="1366" d="M0 299v211h1366v-211h-1366zM0 684v211h1366v-211h-1366z" />
<glyph unicode="&#x3e;" horiz-adv-x="1366" d="M0 -6v229l1081 498l-1081 500v231l1366 -625v-213z" />
<glyph unicode="?" d="M109 997q8 133 57 230.5t124 147.5t153.5 72.5t162.5 22.5q223 0 355.5 -121.5t132.5 -304.5q0 -203 -166 -325q-10 -6 -55.5 -39t-67.5 -51q-51 -43 -63.5 -84t-12.5 -117q0 -43 2 -57h-239q0 211 25.5 287.5t94.5 134.5q18 16 56.5 40.5t48.5 30.5q96 76 96 174 q0 82 -62.5 140.5t-156.5 58.5q-109 0 -170.5 -71.5t-67.5 -196.5zM477 0v281h273v-281h-273z" />
<glyph unicode="@" horiz-adv-x="1835" d="M141 483q0 399 273.5 687t662.5 288q299 0 458 -170t159 -420q0 -285 -147.5 -507t-334.5 -222q-106 0 -153 80q-18 33 -23 78q-123 -156 -276 -156q-113 0 -195 85t-82 253q0 227 130 406.5t309 179.5q154 0 227 -147l25 104h161l-67 -315q-57 -270 -58 -349 q0 -35 15.5 -53t36.5 -18q86 0 186 178t100 391q0 127 -43 222.5t-115.5 146.5t-152.5 74.5t-168 23.5q-315 0 -550.5 -249t-235.5 -591q0 -131 39.5 -235.5t104.5 -171t151 -111.5t173 -63.5t177 -18.5q373 0 676 299l82 -104q-342 -332 -754 -332q-104 0 -209 22.5 t-211 78t-187 137.5t-132.5 210.5t-51.5 288.5zM670 487q0 -94 45 -142t102 -48q104 0 187 127t86 291q2 92 -45.5 143t-108.5 51q-78 0 -141.5 -69.5t-94 -165t-30.5 -187.5z" />
<glyph unicode="A" horiz-adv-x="1323" d="M14 0l488 1446h307l494 -1446h-289l-84 283h-543l-84 -283h-289zM459 518h399l-199 666z" />
<glyph unicode="B" horiz-adv-x="1409" d="M166 0v1446h516q238 -2 313 -25q111 -33 182.5 -123t71.5 -206q0 -113 -61 -197q-63 -82 -180 -104q129 -23 219 -123.5t90 -257.5q0 -129 -65.5 -229.5t-192.5 -145.5q-98 -35 -328 -35h-565zM434 233h266q131 0 177.5 7.5t95.5 42.5q66 47 65 151q0 61 -26 109 q-23 41 -61 66.5t-87 35.5t-80.5 12t-81.5 2l-268 3v-429zM434 864h92q131 0 164 2q131 0 184 29q96 47 97 149q0 94 -84 144q-43 25 -87 30t-196 7h-170v-361z" />
<glyph unicode="C" horiz-adv-x="1409" d="M76 727q0 354 197.5 555t488.5 201q92 0 173 -20.5t135 -49.5t102.5 -76t75 -81.5t52 -88t32.5 -74t20 -57.5l-271 -71q-12 82 -53 143q-86 127 -260 127q-178 0 -288.5 -137t-110.5 -367q0 -240 112.5 -376t288.5 -136q166 0 277 141q51 68 75 150l254 -107 q-49 -127 -125 -217q-193 -223 -499 -223q-295 0 -485.5 205t-190.5 559z" />
<glyph unicode="D" horiz-adv-x="1449" d="M145 0v1446h519q86 -2 137 -6t136 -30t155 -77q279 -197 278 -622q0 -201 -72.5 -368t-224.5 -255q-68 -39 -151.5 -59.5t-143 -23.5t-170.5 -5h-463zM416 244h114q248 0 338 32q96 37 155.5 132.5t59.5 300.5q0 346 -221 452q-55 25 -107.5 31t-195.5 8h-143v-956z" />
<glyph unicode="E" horiz-adv-x="1280" d="M160 0v1446h1028v-242h-762v-340h696v-233h-696v-387h813v-244h-1079z" />
<glyph unicode="F" d="M166 0v1446h956v-242h-688v-360h604v-232h-604v-612h-268z" />
<glyph unicode="G" horiz-adv-x="1536" d="M94 709q0 338 199 556t500 218q219 0 379.5 -119t230.5 -307l-258 -105q-96 287 -350 287q-195 0 -300.5 -148.5t-105.5 -373.5q0 -233 114.5 -366.5t295.5 -133.5q133 0 236.5 80t119.5 256h-360v238h608v-791h-232v123q-162 -160 -395 -160q-319 0 -500.5 218.5 t-181.5 527.5z" />
<glyph unicode="H" horiz-adv-x="1492" d="M166 0v1446h270v-547h621v547h272v-1446h-272v657h-621v-657h-270z" />
<glyph unicode="I" horiz-adv-x="598" d="M164 0v1446h266v-1446h-266z" />
<glyph unicode="J" horiz-adv-x="811" d="M53 -12v266q98 -20 144 -21q113 0 165 58q35 35 43.5 81t8.5 150v924h268v-1022q0 -72 -3 -111t-17.5 -91t-45.5 -93q-115 -160 -397 -160q-68 1 -166 19z" />
<glyph unicode="K" horiz-adv-x="1366" d="M164 0v1446h268v-664l580 664h319l-475 -545l506 -901h-309l-385 680l-236 -270v-410h-268z" />
<glyph unicode="L" horiz-adv-x="1067" d="M168 0v1448h272v-1202h574v-246h-846z" />
<glyph unicode="M" horiz-adv-x="1662" d="M156 0v1446h393l282 -1073l277 1073h393v-1446h-264l25 1188l-312 -1188h-243l-314 1188l27 -1188h-264z" />
<glyph unicode="N" horiz-adv-x="1449" d="M168 0v1446h244l639 -1022l-33 1022h266v-1446h-235l-633 1014l16 -1014h-264z" />
<glyph unicode="O" horiz-adv-x="1579" d="M98 721q0 330 199 546t496 216q135 0 259 -50.5t221 -143.5t154.5 -240.5t57.5 -325.5q-2 -324 -188.5 -542t-508.5 -218q-305 0 -497 221q-193 224 -193 537zM377 733q0 -240 117.5 -380t302.5 -140q72 0 141.5 26.5t132 81t102 150.5t41.5 221q0 8 1 16q0 215 -109 368 q-113 159 -315 159q-186 0 -300 -138.5t-114 -363.5z" />
<glyph unicode="P" horiz-adv-x="1280" d="M168 0v1446h487q164 0 248 -23q133 -37 236.5 -149.5t103.5 -308.5q0 -162 -84 -289t-264 -168q-80 -18 -244 -19h-211v-489h-272zM440 713h195q106 0 153 12q178 43 179 246q0 119 -72 184q-70 59 -250 59h-205v-501z" />
<glyph unicode="Q" horiz-adv-x="1579" d="M74 723q0 207 77.5 378t236.5 276.5t372 105.5q223 0 385 -107.5t235.5 -271.5t73.5 -356q0 -102 -25.5 -229.5t-78.5 -211.5q27 -55 101.5 -82.5t117.5 -27.5q8 0 28 4l-75 -258q-147 33 -308 178q-195 -158 -456 -158q-313 0 -498.5 212t-185.5 548zM362 717 q0 -219 117 -358.5t295 -139.5q133 0 225.5 83t128 192.5t35.5 236.5q0 230 -121 361q-123 133 -286 133q-176 0 -285 -150.5t-109 -357.5z" />
<glyph unicode="R" horiz-adv-x="1323" d="M166 0v1446h461q123 -2 179 -5t133 -26.5t136 -73.5q160 -131 160 -356q0 -78 -22.5 -144.5t-54.5 -107.5t-74 -73.5t-72.5 -48t-61.5 -23.5l322 -588h-309l-287 537h-242v-537h-268zM434 760h94q76 0 179 4q254 8 254 223q0 135 -115 195q-61 31 -287 30h-125v-452z" />
<glyph unicode="S" horiz-adv-x="1366" d="M47 270l227 160q143 -219 449 -219q94 0 156 25q123 51 122 165q0 98 -108 144q-41 14 -168 45l-174 37q-141 35 -182 51q-35 14 -68 34.5t-77 60.5t-71.5 107.5t-27.5 151.5q0 205 157.5 328t413.5 123q367 0 582 -293l-221 -166q-23 33 -36 51.5t-50 54t-72 56t-93 37 t-124 16.5q-115 0 -193.5 -48t-78.5 -128q0 -43 20.5 -74t66.5 -50t78.5 -27.5t100.5 -20.5l149 -33q92 -18 159 -41.5t145.5 -71t121.5 -128t43 -189.5q0 -119 -52 -211t-140 -146.5t-195.5 -81t-226.5 -26.5q-141 0 -258 33q-252 75 -375 274z" />
<glyph unicode="T" d="M47 1200v246h1061v-246h-399v-1200h-271v1200h-391z" />
<glyph unicode="U" horiz-adv-x="1492" d="M164 584v862h270v-889q0 -127 19 -176q61 -156 292 -156q150 0 232 72q39 35 56.5 80t20.5 82t3 112v875h272v-911q-2 -82 -4 -122t-16.5 -102.5t-47 -110.5t-87.5 -96q-162 -141 -437 -141q-145 0 -256 39q-121 41 -195.5 122t-101.5 171q-18 62 -20 289z" />
<glyph unicode="V" horiz-adv-x="1236" d="M16 1446h285l324 -1141l313 1141h281l-412 -1446h-365z" />
<glyph unicode="W" horiz-adv-x="1705" d="M25 1446h276l197 -1102l225 1102h252l229 -1102l203 1102h279l-318 -1446h-315l-203 1006l-209 -1006h-315z" />
<glyph unicode="X" horiz-adv-x="1323" d="M18 0l486 784l-416 662h311l263 -414l249 414h316l-408 -662l490 -784h-310l-337 535l-330 -535h-314z" />
<glyph unicode="Y" horiz-adv-x="1280" d="M20 1446h306l313 -600l317 600h301l-487 -875v-571h-266v571z" />
<glyph unicode="Z" horiz-adv-x="1236" d="M49 0v221l791 981h-723v244h1061v-232l-760 -970h760v-244h-1129z" />
<glyph unicode="[" horiz-adv-x="724" d="M123 -119v1673h545v-196h-277v-1278h277v-199h-545z" />
<glyph unicode="\" horiz-adv-x="980" d="M27 1446h243l686 -1446h-241z" />
<glyph unicode="]" horiz-adv-x="724" d="M53 78h277v1276h-277v200h545v-1673h-545v197z" />
<glyph unicode="^" horiz-adv-x="1366" d="M199 664l399 782h186l383 -782h-241l-238 501l-250 -501h-239z" />
<glyph unicode="_" horiz-adv-x="1024" d="M-20 -154h1064v-102h-1064v102z" />
<glyph unicode="`" horiz-adv-x="555" d="M74 1448h301l106 -274h-182z" />
<glyph unicode="a" horiz-adv-x="1110" d="M53 295q0 74 33 139q27 51 67 89t91 59.5t86 31t86 19.5q221 45 317 76q0 27 -4 47t-18.5 49t-53.5 44t-98 15q-133 0 -182 -65q-25 -31 -25 -90l-252 14q8 92 41 154q98 178 408 178q197 0 307 -66q82 -49 102.5 -112.5t20.5 -167.5v-543q0 -66 7 -94.5t38 -71.5h-291 q-6 74 -6 80q-123 -104 -303 -105q-168 0 -269.5 91.5t-101.5 228.5zM313 307q0 -59 45 -90t121 -31q88 0 153.5 35t86.5 84q14 31 14 92v113q-78 -39 -215 -61q-59 -8 -95 -17.5t-73 -41.5t-37 -83z" />
<glyph unicode="b" horiz-adv-x="1193" d="M131 0v1446h244v-508q127 117 297 117q180 0 314 -151.5t134 -387.5q0 -242 -137 -394.5t-328 -152.5q-162 0 -280 137v-106h-244zM371 528q0 -82 16 -131q16 -68 52 -111.5t79 -59t64.5 -19.5t40.5 -4q123 0 181 97t62 220q0 7 1 15q0 135 -72 214q-76 83 -183 82 q-96 0 -168.5 -75.5t-72.5 -227.5z" />
<glyph unicode="c" horiz-adv-x="1024" d="M49 512q0 233 148.5 388t367.5 155q172 0 281.5 -88t161.5 -203l-220 -102q-18 63 -77.5 118.5t-153.5 55.5q-111 0 -182.5 -84t-71.5 -234q0 -141 69.5 -230t188.5 -89q170 0 246 200l211 -110q-57 -156 -186.5 -238t-274.5 -82q-217 0 -362.5 151.5t-145.5 391.5z" />
<glyph unicode="d" horiz-adv-x="1193" d="M74 489q0 238 126 402t339 164q170 0 274 -115v506h244v-1446h-244v98q-106 -129 -285 -129q-193 0 -323.5 138t-130.5 382zM330 516q0 -14 2 -31.5t7 -59.5t21.5 -79t41 -75t68.5 -59.5t101 -21.5q104 0 173 80t67 236q-4 152 -55 227q-63 94 -181 94q-119 0 -182 -90 t-63 -221z" />
<glyph unicode="e" d="M70 516q0 252 143 395.5t367 143.5q94 0 171.5 -23.5t126 -62.5t70 -61.5t35.5 -45.5q98 -141 104 -399h-757q23 -123 96.5 -188.5t194.5 -65.5q166 0 266 141l209 -121q-195 -260 -500 -260q-219 0 -372.5 140.5t-153.5 406.5zM338 643h479q-31 215 -229 215 q-205 0 -250 -215z" />
<glyph unicode="f" horiz-adv-x="641" d="M8 850v176h154v117q0 57 2 89t18.5 80t49 72.5t98 44t162.5 19.5q49 0 139 -8v-209q-31 6 -78 6q-94 0 -129 -51q-16 -29 -16 -76v-84h223v-176h-223v-850h-246v850h-154z" />
<glyph unicode="g" horiz-adv-x="1193" d="M70 549q0 109 29.5 198t77.5 145t110.5 94t123 53.5t119.5 15.5q184 0 291 -137v106h244v-840q-2 -174 -12.5 -242.5t-53.5 -127.5q-119 -156 -426 -156q-131 0 -221 25.5t-139 76t-72.5 99.5t-38.5 121h271q39 -127 209 -127q147 0 202 81q25 35 31 81t6 155 q-121 -111 -307 -111q-190 0 -317 128.5t-127 361.5zM322 555q0 -129 70.5 -199.5t182.5 -70.5q109 0 180 63q73 65 72 204q0 124 -65 203q-68 81 -189 81q-104 0 -177.5 -72t-73.5 -209z" />
<glyph unicode="h" horiz-adv-x="1193" d="M127 0v1446h246v-526q135 135 325 135q180 0 281 -111q39 -43 59.5 -98t23.5 -97t3 -116v-633h-242v563q-6 117 -16 146q-45 113 -178 112q-104 0 -167 -61.5t-81 -124.5q-8 -33 -8 -164v-471h-246z" />
<glyph unicode="i" horiz-adv-x="512" d="M133 0v1024h244v-1024h-244zM133 1184v248h244v-248h-244z" />
<glyph unicode="j" horiz-adv-x="512" d="M2 -104q82 0 113 38q16 20 19 42t3 114v936h244v-1034q0 -139 -12 -172q-49 -152 -312 -152q-25 0 -55 2v226zM137 1186v248h242v-248h-242z" />
<glyph unicode="k" horiz-adv-x="1110" d="M131 0v1446h244v-813l399 391h313l-391 -391l430 -633h-299l-309 459l-143 -142v-317h-244z" />
<glyph unicode="l" horiz-adv-x="512" d="M133 0v1446h248v-1446h-248z" />
<glyph unicode="m" horiz-adv-x="1792" d="M131 0v1024h244v-115q57 72 149 109t174 37q197 0 285 -158q43 59 126 108.5t202 49.5q174 0 270 -105q39 -41 57.5 -99t20.5 -95t2 -111v-645h-244v565v19q0 41 -1 64.5t-9 61.5t-25.5 59.5t-52.5 37.5t-84 16q-115 0 -174 -96q-53 -86 -53 -246v-481h-244v571 q0 100 -8 131q-14 53 -55 87t-103 34q-121 0 -188 -118q-45 -84 -45 -277v-428h-244z" />
<glyph unicode="n" d="M129 0v1024h248v-121q33 47 80 80q98 72 235 72q84 0 157 -35t112 -88q31 -41 45 -98.5t16 -101.5t2 -130v-602h-244v522q0 127 -8 156q-35 137 -168 137q-59 0 -110.5 -31.5t-77.5 -83.5q-39 -76 -39 -256v-444h-248z" />
<glyph unicode="o" horiz-adv-x="1193" d="M72 516q0 236 146.5 387.5t375.5 151.5q223 0 375.5 -146.5t154.5 -392.5q0 -240 -144 -393.5t-376 -153.5q-238 0 -385 154.5t-147 392.5zM328 522q0 -152 79.5 -239.5t196.5 -87.5q127 0 197 95q66 90 66 215q0 7 -1 15q-4 133 -76.5 223.5t-197.5 90.5 q-117 0 -190.5 -86.5t-73.5 -225.5z" />
<glyph unicode="p" horiz-adv-x="1193" d="M133 -334v1358h244v-94q119 125 280 125q215 0 340 -164t125 -389q0 -231 -130 -382t-335 -151q-156 0 -280 115v-418h-244zM375 510q0 -145 69 -226q72 -83 181 -83q102 0 174.5 76.5t72.5 236.5q0 90 -27.5 154.5t-71.5 95.5t-82 43t-70 12q-96 0 -170 -75 q-76 -76 -76 -234z" />
<glyph unicode="q" d="M51 502q0 262 141.5 407.5t321.5 145.5q184 0 283 -140v109h243v-1358h-243v430q-121 -127 -295 -127q-209 0 -330 151t-121 382zM303 502q0 -135 64.5 -221t181.5 -86q113 0 182 81q68 80 68 225q0 89 -27 158q-25 63 -64.5 95t-79.5 46.5t-79 14.5q-98 0 -172 -78.5 t-74 -234.5z" />
<glyph unicode="r" horiz-adv-x="724" d="M131 0v1024h238v-145q18 31 33.5 51t53.5 53t99 49q55 15 124 15h17v-252q-147 -6 -221 -62q-72 -55 -89 -129t-17 -225v-379h-238z" />
<glyph unicode="s" horiz-adv-x="1067" d="M45 152l182 151q106 -131 295 -131q96 0 149.5 38t53.5 83q0 68 -107 88q-12 2 -115.5 22.5t-123.5 26.5q-164 39 -226.5 120t-62.5 171q0 137 119 235.5t319 98.5q199 0 338 -99q59 -39 105 -92l-174 -162q-80 156 -279 156q-82 0 -126 -30.5t-44 -73.5q0 -51 48 -75 t159 -42q176 -33 234.5 -48.5t103.5 -51.5q104 -80 104 -218q0 -135 -119.5 -242.5t-340.5 -107.5q-304 1 -492 183z" />
<glyph unicode="t" horiz-adv-x="641" d="M8 848v176h150v362h245v-362h220v-176h-220v-463q0 -59 2.5 -84t12.5 -52.5t34.5 -36.5t67.5 -9q61 0 103 12v-207q-98 -16 -179 -16q-223 0 -270 125q-16 41 -16 209v522h-150z" />
<glyph unicode="u" horiz-adv-x="1193" d="M127 432v592h248v-588q0 -76 8 -102q39 -129 190 -129q131 0 199 108q27 47 33 101.5t8 175.5v434h246v-1024h-246v104q-135 -129 -332 -129q-193 0 -284 119q-33 41 -49.5 96.5t-18.5 100.5t-2 141z" />
<glyph unicode="v" horiz-adv-x="980" d="M27 1024h254l213 -705l208 705h256l-335 -1024h-265z" />
<glyph unicode="w" horiz-adv-x="1536" d="M35 1024h256l178 -700l190 700h220l188 -700l182 700h256l-307 -1024h-244l-184 653l-197 -653h-241z" />
<glyph unicode="x" horiz-adv-x="1024" d="M18 0l353 549l-312 475h289l168 -258l164 258h291l-309 -475l350 -549h-283l-213 324l-205 -324h-293z" />
<glyph unicode="y" horiz-adv-x="980" d="M25 1024h264l227 -764l195 764h252l-261 -893l-57 -192q-53 -164 -123.5 -227.5t-212.5 -63.5q-61 0 -147 12v215q35 -6 65 -6q72 0 111 27q20 14 38.5 40.5t18.5 43.5z" />
<glyph unicode="z" horiz-adv-x="1024" d="M63 0v188l553 617h-497v219h821v-190l-543 -617h543v-217h-877z" />
<glyph unicode="{" horiz-adv-x="724" d="M84 647v129q31 10 47 16.5t39 28t39 53.5q27 57 27 232v74q2 154 17 223.5t64 120.5q51 51 128 67.5t272 18.5v-131q-133 -33 -176 -105q-37 -55 -37 -239l2 -2q0 -49 -4 -136q-6 -143 -53.5 -200.5t-141.5 -85.5q41 -14 63.5 -23.5t54.5 -38t50 -67.5q31 -68 31 -263 v-32q0 -172 37 -238.5t174 -105.5v-129q-180 4 -259 17t-132 60q-41 37 -60.5 92.5t-22.5 97.5t-5 134v137v51q-4 86 -31 139.5t-52.5 71t-70.5 33.5z" />
<glyph unicode="|" horiz-adv-x="468" d="M129 -512v2048h211v-2048h-211z" />
<glyph unicode="}" horiz-adv-x="724" d="M8 -55q133 33 176 104q37 55 37 240l-2 2q0 49 4 135q6 143 53.5 200.5t141.5 86.5q-41 14 -63.5 23t-54.5 38t-50 68q-31 68 -31 262v33q0 172 -37 238.5t-174 105.5v129q180 -4 259 -17.5t132 -60.5q41 -37 60.5 -92.5t22.5 -97.5t5 -134v-137v-51q4 -86 31 -139.5 t52.5 -70.5t70.5 -34v-129q-31 -10 -47 -16t-39 -27.5t-39 -54.5q-27 -57 -27 -232v-73q-2 -154 -17 -223.5t-64 -120.5q-51 -51 -128 -67.5t-272 -18.5v131z" />
<glyph unicode="~" horiz-adv-x="1366" d="M168 604q125 182 297 182q78 0 219 -65l70 -33q100 -43 149 -43q94 0 201 127l94 -182q-43 -45 -70.5 -70.5t-95 -60.5t-135.5 -35q-74 0 -211 65l-59 29q-102 47 -158 47q-57 0 -93 -26.5t-110 -112.5z" />
<glyph unicode="&#xa1;" horiz-adv-x="512" d="M82 0v555l78 532h114l76 -532v-555h-268zM82 1163v283h268v-283h-268z" />
<glyph unicode="&#xa2;" horiz-adv-x="1024" d="M45 524q0 240 129 375t305 170v203h162v-203q137 -16 216 -88t144 -195l-217 -102q-18 49 -39.5 82t-45 49t-34 20.5t-28.5 10.5v-631q127 37 164 191l211 -113q-41 -98 -88 -156q-113 -137 -287 -153v-205h-160v203q-201 33 -309 165q-123 152 -123 377zM297 537 q0 -260 180 -314v625q-76 -35 -115 -86q-65 -82 -65 -225z" />
<glyph unicode="&#xa3;" horiz-adv-x="1280" d="M100 215q0 111 66.5 168t163.5 57q66 0 151 -28q4 20 4 34q0 70 -55 119h-268v217h164q-88 106 -88 246q0 111 50 193t127 123.5t150.5 60t141.5 18.5q123 0 220 -45t152 -116q41 -53 60.5 -123t19.5 -129v-121h-266q10 45 10 88q0 104 -63.5 161.5t-139 57.5t-134 -51 t-58.5 -139q0 -100 100 -224h254v-217h-160q14 -90 15 -147q0 -61 -15 -125q90 -59 142 -60q109 0 108 195v47h265q4 -166 -48 -297q-76 -195 -266 -194q-94 0 -198 49l-95 47q-66 -37 -96.5 -53.5t-76.5 -29.5t-91 -13q-111 0 -178.5 66.5t-67.5 164.5zM295 206.5 q0 -16.5 15.5 -30.5t39.5 -14q51 0 80 55q-43 35 -80 35q-27 0 -41 -14.5t-14 -31z" />
<glyph unicode="&#xa4;" horiz-adv-x="1366" d="M49 221l164 160q-35 55 -51.5 88t-31.5 93.5t-15 133.5q0 72 15 132.5t30.5 91t50.5 88.5l-158 157l156 158l160 -158q55 33 87.5 49.5t95 32t136.5 15.5q70 0 130.5 -15.5t90 -31t86.5 -50.5l160 158l160 -158l-162 -157q33 -55 49.5 -86t31.5 -91.5t15 -130.5 q0 -80 -17.5 -147.5t-34.5 -99t-46 -74.5l162 -162l-160 -158l-160 162q-57 -33 -86.5 -48t-90 -30.5t-132.5 -15.5q-168 0 -315 96l-162 -160zM324 692q0 -156 106.5 -258t251.5 -102q152 0 254 102.5t104 259.5q2 160 -106.5 261.5t-249.5 101.5q-147 0 -253.5 -100.5 t-106.5 -264.5z" />
<glyph unicode="&#xa5;" horiz-adv-x="1236" d="M6 1405h305l305 -584l314 584h301l-297 -524h172v-203h-291l-70 -125h361v-203h-361v-350h-264v350h-362v203h360l-63 125h-297v203h182z" />
<glyph unicode="&#xa6;" horiz-adv-x="468" d="M129 -358v716h211v-716h-211zM129 666v716h211v-716h-211z" />
<glyph unicode="&#xa7;" horiz-adv-x="1323" d="M88 770q0 182 217 305q-80 80 -80 180q0 137 114 218t286 81q264 0 481 -137l-115 -174q-86 39 -123 54.5t-102.5 34t-120.5 18.5q-145 0 -145 -72q0 -33 28.5 -52.5t94.5 -45.5l188 -82q88 -39 129 -59.5t109.5 -62.5t101.5 -80t59.5 -95.5t26.5 -124.5q0 -23 -5 -50.5 t-22.5 -82t-66.5 -106.5t-125 -89q84 -90 84 -188q0 -113 -103.5 -203t-306.5 -90q-143 0 -278 47t-228 115l119 168q197 -125 383 -125q39 0 66.5 8t41 19.5t20.5 25.5t8 20.5t1 10.5q0 49 -98 92q-59 25 -133 59l-137 60q-369 161 -369 403zM348 807q0 -43 32 -80 t63.5 -54.5t80.5 -37.5q66 -29 125.5 -56.5t104.5 -49t59 -27.5l59 -33q90 72 91 162q0 80 -78 135q-29 23 -87.5 51.5t-97 46t-47.5 19.5q-37 12 -129 49l-53 24q-45 -16 -70 -36q-53 -47 -53 -113z" />
<glyph unicode="&#xa8;" horiz-adv-x="555" d="M-45 1202v244h231v-244h-231zM367 1202v244h231v-244h-231z" />
<glyph unicode="&#xa9;" horiz-adv-x="1705" d="M125 723q0 307 212 518t519 211q305 0 516 -210t211 -521q0 -215 -117 -402q-92 -143 -254.5 -234t-359.5 -91q-188 0 -354 90t-269.5 260t-103.5 379zM190 721q0 -272 192.5 -467t473.5 -195q176 0 325.5 83t242 235.5t94.5 343.5q4 274 -185.5 469.5t-476.5 195.5 q-279 0 -472.5 -192t-193.5 -473zM373 725q0 215 138 357.5t359 142.5q102 0 188.5 -35t122.5 -64.5t83 -78.5l-146 -142q-115 121 -250 121q-129 0 -209.5 -84t-80.5 -215q0 -137 85 -218t209 -81q139 0 246 113l148 -133q-45 -47 -79 -76t-123 -66t-194 -37 q-227 0 -362 142.5t-135 353.5z" />
<glyph unicode="&#xaa;" horiz-adv-x="681" d="M80 1044q0 41 15.5 72t35 49.5t57 32.5t60.5 20l67 15q111 23 140 35q2 23 -1 38t-27 31.5t-69 16.5q-37 0 -61.5 -8.5t-33.5 -23.5t-11 -25.5t-2 -26.5l-144 10q4 33 13.5 57.5t33 56t76 50t129.5 18.5q119 0 181 -47q47 -31 55 -112v-349q2 -45 24 -82h-139 q-12 27 -14 46q-90 -57 -184 -58q-86 0 -143.5 51t-57.5 133zM229 1044q0 -59 82 -59q74 0 113 35q29 23 29 78v49q-80 -20 -111 -27q-113 -19 -113 -76z" />
<glyph unicode="&#xab;" horiz-adv-x="894" d="M121 500v288l291 234v-234l-176 -145l176 -143v-230zM494 500v288l290 234v-234l-176 -145l176 -143v-230z" />
<glyph unicode="&#xac;" horiz-adv-x="1366" d="M0 496v211h1366v-707h-211v496h-1155z" />
<glyph unicode="&#xad;" horiz-adv-x="724" d="M109 528v230h507v-230h-507z" />
<glyph unicode="&#xae;" horiz-adv-x="1705" d="M125 723q0 311 214 520t513 209q313 0 523 -215t208 -518t-213 -514t-518 -211q-293 0 -510 207t-217 522zM190 723q0 -279 194 -471.5t470 -192.5q281 0 471.5 191.5t192.5 470.5q2 274 -189.5 469.5t-472.5 195.5q-279 0 -472.5 -194.5t-193.5 -468.5zM528 264v930h318 q162 -4 217 -23q78 -27 118 -89t40 -132q0 -154 -177 -219q35 -18 52.5 -31.5t36 -51.5t28.5 -101q33 -203 76 -283h-223q-29 61 -49 203q-18 131 -48 165t-147 36h-47v-404h-195zM723 823h117q33 0 48 1t47 6.5t48 16.5t29.5 34.5t13.5 56.5q0 70 -57 94q-31 12 -158 12 h-88v-221z" />
<glyph unicode="&#xaf;" horiz-adv-x="555" d="M-72 1200v186h699v-186h-699z" />
<glyph unicode="&#xb0;" horiz-adv-x="724" d="M10 1194q0 145 103.5 248.5t249 103.5t249 -103.5t103.5 -248.5t-103.5 -248.5t-249 -103.5t-249 103.5t-103.5 248.5zM215 1194q0 -61 43 -104t104.5 -43t104.5 43t43 104t-43 104t-104.5 43t-104.5 -43t-43 -104z" />
<glyph unicode="&#xb1;" horiz-adv-x="1366" d="M86 0v211h1194v-211h-1194zM86 766v211h494v461h211v-461h489v-211h-489v-463h-211v463h-494z" />
<glyph unicode="&#xb2;" horiz-adv-x="768" d="M72 1040q10 135 32 185q72 170 277 170q143 0 218 -82t75 -199q0 -133 -81 -231.5t-284 -261.5h383v-146h-616v135q170 121 284 246q123 129 123 250q0 63 -32.5 95t-81.5 32q-51 0 -78 -32t-32 -65.5t-11 -109.5z" />
<glyph unicode="&#xb3;" horiz-adv-x="768" d="M43 778h178q2 -31 6 -49t17.5 -51t44 -50.5t78.5 -17.5q66 0 102.5 42t36.5 102q0 41 -15.5 68.5t-44 39.5t-46 15.5t-46.5 5.5h-57v145h55q135 0 135 100q0 59 -35.5 85t-80.5 26q-37 0 -62.5 -13.5t-39 -41t-18.5 -46t-11 -51.5l-174 41q20 104 71 162q88 104 246 105 q131 0 209 -75t78 -173q0 -47 -15.5 -83t-44 -57.5t-45 -29.5t-41.5 -16q37 -14 55.5 -23.5t49 -33t45 -62.5t14.5 -92q0 -127 -87 -208t-236 -81q-180 0 -263 108q-55 70 -59 209z" />
<glyph unicode="&#xb4;" horiz-adv-x="555" d="M74 1174l102 272h303l-221 -272h-184z" />
<glyph unicode="&#xb5;" horiz-adv-x="1193" d="M127 -332v1358h248v-530q0 -289 215 -289q61 0 105 22.5t66.5 53t35 86t14.5 97.5t2 109v451h246v-1024h-246v104q-43 -47 -65.5 -67.5t-68.5 -41t-104 -20.5q-121 0 -200 103v-412h-248z" />
<glyph unicode="&#xb6;" horiz-adv-x="1366" d="M174 1022q0 166 92 274q53 66 129 102t122 41t116 7h491v-135h-71v-1653h-146v1653h-268v-1653h-145v969q-154 37 -230 125q-90 108 -90 270z" />
<glyph unicode="&#xb7;" horiz-adv-x="425" d="M76 504v280h270v-280h-270z" />
<glyph unicode="&#xb8;" horiz-adv-x="555" d="M70 -188l206 213h93l-93 -119q78 6 142.5 -27t64.5 -102q0 -160 -315 -160q-41 0 -86 4v64q14 -4 33 -4q131 0 131 53q0 51 -133 51q-27 0 -43 -2v29z" />
<glyph unicode="&#xb9;" horiz-adv-x="768" d="M133 1096v121l43 2q35 2 58.5 6t59.5 19.5t58.5 53t30.5 95.5h143v-916h-172v527v34q0 37 -19.5 45.5t-72.5 10.5z" />
<glyph unicode="&#xba;" horiz-adv-x="681" d="M49 1155q0 131 82 219t211 88q127 0 210 -85t81 -224q-4 -135 -85 -219t-210 -84q-123 0 -206 86t-83 219zM199 1157q-2 -86 40 -132t101 -46q66 0 106.5 49t40.5 133q0 76 -38.5 125t-102.5 49q-55 0 -100 -42t-47 -136z" />
<glyph unicode="&#xbb;" horiz-adv-x="894" d="M109 270v234l176 145l-176 144v229l290 -229v-289zM481 270v234l176 145l-176 144v229l291 -229v-289z" />
<glyph unicode="&#xbc;" horiz-adv-x="1792" d="M133 1096v121l43 2q35 2 58.5 6t59.5 19.5t58.5 53t30.5 95.5h143v-916h-172v561q0 37 -20.5 46.5t-71.5 9.5zM487 -10l646 1399l139 -66l-643 -1399zM1069 207v129l397 567h170v-553h115v-145h-121v-205h-164v207h-397zM1253 352h220l4 346z" />
<glyph unicode="&#xbd;" horiz-adv-x="1792" d="M133 1096v121l43 2q35 2 58.5 6t59.5 19.5t58.5 53t30.5 95.5h143v-918h-172v563q0 37 -20.5 46.5t-71.5 9.5zM471 -10l645 1399l137 -66l-641 -1399zM1096 565q10 135 32 185q72 170 277 170q143 0 218 -82t75 -199q0 -133 -81 -231.5t-284 -262.5h383v-145h-616v135 q170 121 284 246q123 129 123 250q0 63 -32.5 95t-81.5 32q-51 0 -78 -32t-32 -65.5t-11 -109.5z" />
<glyph unicode="&#xbe;" horiz-adv-x="1792" d="M43 778h178q2 -31 6 -49t17.5 -51t44 -50.5t78.5 -17.5q66 0 102.5 42t36.5 102q0 41 -15.5 68.5t-44 39.5t-46 15.5t-46.5 5.5h-57v145h55q135 0 135 100q0 59 -35.5 85t-80.5 26q-37 0 -62.5 -13.5t-39 -41t-18.5 -46t-11 -51.5l-174 41q20 104 71 162q88 104 246 105 q131 0 209 -75t78 -173q0 -47 -15.5 -83t-44 -57.5t-45 -29.5t-41.5 -16q37 -14 55.5 -23.5t49 -33t45 -62.5t14.5 -92q0 -127 -87 -208t-236 -81q-180 0 -263 108q-55 70 -59 209zM537 -10l643 1396l139 -63l-641 -1399zM1069 207v129l395 569h170v-555h115v-145h-119v-205 h-164v207h-397zM1251 352h219l5 346z" />
<glyph unicode="&#xbf;" d="M55 401q0 199 166 326q20 16 61.5 45t61.5 45q78 63 78 199q0 27 -4 59h239q0 -207 -23.5 -284.5t-98.5 -139.5q-18 -14 -55.5 -37.5t-47.5 -31.5q-96 -76 -96 -176q0 -82 63.5 -139.5t157.5 -57.5q115 0 173 80t63 190l247 -30q-8 -133 -57 -230.5t-124 -148t-152.5 -73 t-163.5 -22.5q-225 0 -356.5 122t-131.5 304zM399 1165v281h273v-281h-273z" />
<glyph unicode="&#xc0;" horiz-adv-x="1323" d="M14 0l488 1446h307l494 -1446h-289l-84 283h-543l-84 -283h-289zM379 1833h291l110 -248h-182zM459 518h399l-199 666z" />
<glyph unicode="&#xc1;" horiz-adv-x="1323" d="M14 0l488 1446h307l494 -1446h-289l-84 283h-543l-84 -283h-289zM459 518h399l-199 666zM549 1587l108 246h293l-219 -246h-182z" />
<glyph unicode="&#xc2;" horiz-adv-x="1323" d="M14 0l488 1446h307l494 -1446h-289l-84 283h-543l-84 -283h-289zM338 1583l205 250h241l213 -250h-247l-86 115l-86 -115h-240zM459 518h399l-199 666z" />
<glyph unicode="&#xc3;" horiz-adv-x="1323" d="M14 0l488 1446h307l494 -1446h-289l-84 283h-543l-84 -283h-289zM303 1575q10 100 49 160q63 98 164 98q66 0 148 -35q104 -43 141 -43q18 0 39 12q25 14 37 66h159q-12 -113 -55 -176q-53 -84 -151 -84q-59 0 -177 47q-94 33 -120 33q-57 0 -74 -78h-160zM459 518h399 l-199 666z" />
<glyph unicode="&#xc4;" horiz-adv-x="1323" d="M14 0l488 1446h307l494 -1446h-289l-84 283h-543l-84 -283h-289zM350 1581v252h230v-252h-230zM459 518h399l-199 666zM760 1581v252h233v-252h-233z" />
<glyph unicode="&#xc5;" horiz-adv-x="1323" d="M14 0l488 1446h307l494 -1446h-289l-84 283h-543l-84 -283h-289zM459 518h399l-199 666zM461 1765q0 84 60.5 145.5t146.5 61.5t147.5 -60.5t61.5 -146.5t-60.5 -147.5t-148.5 -61.5q-86 0 -146.5 61.5t-60.5 147.5zM582 1765q0 -37 25.5 -61.5t60.5 -24.5q37 0 61.5 26 t24.5 60.5t-24.5 59t-61.5 24.5q-35 0 -60.5 -24.5t-25.5 -59.5z" />
<glyph unicode="&#xc6;" horiz-adv-x="2134" d="M12 0l856 1446h1186v-244h-754v-342h656v-237h-656v-377h785v-246h-1057v338h-508l-192 -338h-316zM659 582h369v659z" />
<glyph unicode="&#xc7;" horiz-adv-x="1409" d="M76 727q0 354 197.5 555t488.5 201q451 0 588 -447l-269 -71q-12 80 -53 143q-86 127 -260 127q-178 0 -288.5 -137t-110.5 -367q0 -240 112.5 -376t288.5 -136q168 0 277 143q41 55 75 148l254 -107q-53 -127 -125 -215q-53 -66 -108.5 -106.5t-122 -63t-110.5 -30.5 t-126 -19l-47 -63q78 6 142.5 -27t64.5 -102q0 -158 -315 -158q-41 0 -86 4v64q14 -4 32 -4q131 0 132 53q0 49 -134 49q-27 0 -43 -2v29l154 157q-78 14 -120 24.5t-108.5 35t-120.5 70.5t-106 114q-153 203 -153 514z" />
<glyph unicode="&#xc8;" horiz-adv-x="1280" d="M160 0v1446h1028v-242h-762v-340h696v-233h-696v-387h813v-244h-1079zM356 1833h291l111 -248h-183z" />
<glyph unicode="&#xc9;" horiz-adv-x="1280" d="M160 0v1446h1028v-242h-762v-340h696v-233h-696v-387h813v-244h-1079zM526 1587l109 246h293l-219 -246h-183z" />
<glyph unicode="&#xca;" horiz-adv-x="1280" d="M160 0v1446h1028v-242h-762v-340h696v-233h-696v-387h813v-244h-1079zM315 1583l205 250h242l213 -250h-248l-86 115l-86 -115h-240z" />
<glyph unicode="&#xcb;" horiz-adv-x="1280" d="M160 0v1446h1028v-242h-762v-340h696v-233h-696v-387h813v-244h-1079zM319 1581v252h230v-252h-230zM729 1581v252h234v-252h-234z" />
<glyph unicode="&#xcc;" horiz-adv-x="598" d="M16 1833h291l111 -248h-182zM164 0v1446h266v-1446h-266z" />
<glyph unicode="&#xcd;" horiz-adv-x="598" d="M164 0v1446h266v-1446h-266zM186 1587l109 246h293l-219 -246h-183z" />
<glyph unicode="&#xce;" horiz-adv-x="598" d="M-25 1583l205 250h242l213 -250h-248l-86 115l-86 -115h-240zM164 0v1446h266v-1446h-266z" />
<glyph unicode="&#xcf;" horiz-adv-x="598" d="M-20 1581v252h229v-252h-229zM164 0v1446h266v-1446h-266zM389 1581v252h234v-252h-234z" />
<glyph unicode="&#xd0;" horiz-adv-x="1449" d="M6 668v184h139v594h476q180 0 268 -21q211 -49 346 -234t135 -480q0 -283 -129 -467q-61 -86 -137 -139.5t-177.5 -75t-168 -25.5t-191.5 -4h-422v668h-139zM416 244h114q248 0 338 32q96 37 155.5 132.5t59.5 300.5q0 225 -94 348q-109 139 -301 141l-272 2v-350h315 v-184h-315v-422z" />
<glyph unicode="&#xd1;" horiz-adv-x="1449" d="M168 0v1446h244l639 -1022l-33 1022h266v-1446h-235l-633 1014l16 -1014h-264zM367 1575q10 100 49 160q63 98 164 98q66 0 147 -35q104 -43 141 -43q18 0 39 12q25 14 37 66h160q-12 -113 -55 -176q-53 -84 -152 -84q-57 0 -176 47q-94 33 -121 33q-57 0 -74 -78h-159z " />
<glyph unicode="&#xd2;" horiz-adv-x="1579" d="M98 721q0 330 199 546t496 216q135 0 259 -50.5t221 -143.5t154.5 -240.5t57.5 -325.5q-2 -324 -188.5 -542t-508.5 -218q-305 0 -497 221q-193 224 -193 537zM377 733q0 -240 117.5 -380t302.5 -140q72 0 141.5 26.5t132 81t102 150.5t41.5 221q4 225 -108.5 384 t-314.5 159q-186 0 -300 -138.5t-114 -363.5zM506 1833h291l110 -248h-182z" />
<glyph unicode="&#xd3;" horiz-adv-x="1579" d="M98 721q0 330 199 546t496 216q135 0 259 -50.5t221 -143.5t154.5 -240.5t57.5 -325.5q-2 -324 -188.5 -542t-508.5 -218q-305 0 -497 221q-193 224 -193 537zM377 733q0 -240 117.5 -380t302.5 -140q72 0 141.5 26.5t132 81t102 150.5t41.5 221q4 225 -108.5 384 t-314.5 159q-186 0 -300 -138.5t-114 -363.5zM676 1587l108 246h293l-219 -246h-182z" />
<glyph unicode="&#xd4;" horiz-adv-x="1579" d="M98 721q0 330 199 546t496 216q135 0 259 -50.5t221 -143.5t154.5 -240.5t57.5 -325.5q-2 -324 -188.5 -542t-508.5 -218q-305 0 -497 221q-193 224 -193 537zM377 733q0 -240 117.5 -380t302.5 -140q72 0 141.5 26.5t132 81t102 150.5t41.5 221q4 225 -108.5 384 t-314.5 159q-186 0 -300 -138.5t-114 -363.5zM465 1583l205 250h241l213 -250h-247l-86 115l-86 -115h-240z" />
<glyph unicode="&#xd5;" horiz-adv-x="1579" d="M98 721q0 330 199 546t496 216q135 0 259 -50.5t221 -143.5t154.5 -240.5t57.5 -325.5q-2 -324 -188.5 -542t-508.5 -218q-305 0 -497 221q-193 224 -193 537zM377 733q0 -240 117.5 -380t302.5 -140q72 0 141.5 26.5t132 81t102 150.5t41.5 221q4 225 -108.5 384 t-314.5 159q-186 0 -300 -138.5t-114 -363.5zM430 1575q10 100 49 160q63 98 164 98q66 0 148 -35q104 -43 141 -43q18 0 39 12q25 14 37 66h159q-12 -113 -55 -176q-53 -84 -151 -84q-59 0 -177 47q-94 33 -120 33q-57 0 -74 -78h-160z" />
<glyph unicode="&#xd6;" horiz-adv-x="1579" d="M98 721q0 330 199 546t496 216q135 0 259 -50.5t221 -143.5t154.5 -240.5t57.5 -325.5q-2 -324 -188.5 -542t-508.5 -218q-305 0 -497 221q-193 224 -193 537zM377 733q0 -240 117.5 -380t302.5 -140q72 0 141.5 26.5t132 81t102 150.5t41.5 221q4 225 -108.5 384 t-314.5 159q-186 0 -300 -138.5t-114 -363.5zM471 1581v252h229v-252h-229zM881 1581v252h233v-252h-233z" />
<glyph unicode="&#xd7;" horiz-adv-x="1366" d="M139 205l391 393l-391 393l152 152l391 -393l391 393l154 -152l-393 -393l393 -393l-154 -152l-391 393l-391 -393z" />
<glyph unicode="&#xd8;" horiz-adv-x="1579" d="M49 201l144 127q-98 166 -99 387q0 346 200 557t505 211q264 0 471 -197l127 113l121 -137l-138 -121q109 -190 109 -422q0 -111 -26.5 -217.5t-83 -203.5t-137.5 -172t-197.5 -119t-256.5 -44q-127 0 -229 37t-154.5 78t-109.5 104l-129 -116zM367 745q0 -133 43 -223 l665 594q-123 123 -276 123q-186 0 -309 -146.5t-123 -347.5zM500 362q98 -152 288 -151q180 0 304.5 139t124.5 357q0 139 -48 247z" />
<glyph unicode="&#xd9;" horiz-adv-x="1492" d="M164 584v862h270v-889q0 -127 19 -176q61 -156 292 -156q150 0 232 72q39 35 56.5 80t20.5 82t3 112v875h272v-911q-2 -82 -4 -122t-16.5 -102.5t-47 -110.5t-87.5 -96q-162 -141 -437 -141q-145 0 -256 39q-121 41 -195.5 122t-101.5 171q-18 62 -20 289zM465 1833h291 l110 -248h-182z" />
<glyph unicode="&#xda;" horiz-adv-x="1492" d="M164 584v862h270v-889q0 -127 19 -176q61 -156 292 -156q150 0 232 72q39 35 56.5 80t20.5 82t3 112v875h272v-911q-2 -82 -4 -122t-16.5 -102.5t-47 -110.5t-87.5 -96q-162 -141 -437 -141q-145 0 -256 39q-121 41 -195.5 122t-101.5 171q-18 62 -20 289zM635 1587 l108 246h293l-219 -246h-182z" />
<glyph unicode="&#xdb;" horiz-adv-x="1492" d="M164 584v862h270v-889q0 -127 19 -176q61 -156 292 -156q150 0 232 72q39 35 56.5 80t20.5 82t3 112v875h272v-911q-2 -82 -4 -122t-16.5 -102.5t-47 -110.5t-87.5 -96q-162 -141 -437 -141q-145 0 -256 39q-121 41 -195.5 122t-101.5 171q-18 62 -20 289zM424 1583 l205 250h241l213 -250h-247l-86 115l-86 -115h-240z" />
<glyph unicode="&#xdc;" horiz-adv-x="1492" d="M164 584v862h270v-889q0 -127 19 -176q61 -156 292 -156q150 0 232 72q39 35 56.5 80t20.5 82t3 112v875h272v-911q-2 -82 -4 -122t-16.5 -102.5t-47 -110.5t-87.5 -96q-162 -141 -437 -141q-145 0 -256 39q-121 41 -195.5 122t-101.5 171q-18 62 -20 289zM426 1581v252 h229v-252h-229zM836 1581v252h233v-252h-233z" />
<glyph unicode="&#xdd;" horiz-adv-x="1280" d="M20 1446h306l313 -600l317 600h301l-487 -875v-571h-266v571zM526 1587l109 246h293l-219 -246h-183z" />
<glyph unicode="&#xde;" horiz-adv-x="1280" d="M168 0v1446h272v-205h215q164 0 248 -22q133 -37 236.5 -150t103.5 -309q0 -162 -84 -289t-264 -168q-80 -18 -244 -18h-211v-285h-272zM440 508h195q106 0 153 12q178 43 179 246q0 119 -72 184q-70 59 -250 60h-205v-502z" />
<glyph unicode="&#xdf;" d="M133 0v1010q2 133 6 155q20 141 141 223t287 82q188 0 323.5 -100t135.5 -264q0 -106 -55.5 -172t-128.5 -90q76 -37 102 -58q135 -106 135 -340q0 -207 -107.5 -334.5t-305.5 -127.5q-113 0 -197 30v238q76 -45 139 -45q76 0 143.5 60.5t67.5 197.5q0 84 -28.5 143.5 t-72.5 84t-93.5 41t-90 13t-65.5 -1.5v185q49 -4 66 -4q104 0 158.5 50t54.5 122q0 66 -46.5 108.5t-128.5 42.5q-88 0 -139 -47q-25 -25 -36 -59.5t-13 -65t-4 -106.5v-971h-248z" />
<glyph unicode="&#xe0;" horiz-adv-x="1110" d="M53 295q0 74 33 139q27 51 67 89t91 59.5t86 31t86 19.5q221 45 317 76q0 27 -4 47t-18.5 49t-53.5 44t-98 15q-133 0 -182 -65q-25 -31 -25 -90l-252 14q8 92 41 154q98 178 408 178q197 0 307 -66q82 -49 102.5 -112.5t20.5 -167.5v-543q0 -66 7 -94.5t38 -71.5h-291 q-6 74 -6 80q-123 -104 -303 -105q-168 0 -269.5 91.5t-101.5 228.5zM313 307q0 -59 45 -90t121 -31q88 0 153.5 35t86.5 84q14 31 14 92v113q-78 -39 -215 -61q-59 -8 -95 -17.5t-73 -41.5t-37 -83zM338 1448h301l106 -274h-182z" />
<glyph unicode="&#xe1;" horiz-adv-x="1110" d="M53 295q0 74 33 139q27 51 67 89t91 59.5t86 31t86 19.5q221 45 317 76q0 27 -4 47t-18.5 49t-53.5 44t-98 15q-133 0 -182 -65q-25 -31 -25 -90l-252 14q8 92 41 154q98 178 408 178q197 0 307 -66q82 -49 102.5 -112.5t20.5 -167.5v-543q0 -66 7 -94.5t38 -71.5h-291 q-6 74 -6 80q-123 -104 -303 -105q-168 0 -269.5 91.5t-101.5 228.5zM313 307q0 -59 45 -90t121 -31q88 0 153.5 35t86.5 84q14 31 14 92v113q-78 -39 -215 -61q-59 -8 -95 -17.5t-73 -41.5t-37 -83zM451 1174l102 272h303l-221 -272h-184z" />
<glyph unicode="&#xe2;" horiz-adv-x="1110" d="M53 295q0 74 33 139q27 51 67 89t91 59.5t86 31t86 19.5q221 45 317 76q0 27 -4 47t-18.5 49t-53.5 44t-98 15q-133 0 -182 -65q-25 -31 -25 -90l-252 14q8 92 41 154q98 178 408 178q197 0 307 -66q82 -49 102.5 -112.5t20.5 -167.5v-543q0 -66 7 -94.5t38 -71.5h-291 q-6 74 -6 80q-123 -104 -303 -105q-168 0 -269.5 91.5t-101.5 228.5zM209 1171l227 275h242l227 -275h-250l-96 138l-102 -138h-248zM313 307q0 -59 45 -90t121 -31q88 0 153.5 35t86.5 84q14 31 14 92v113q-78 -39 -215 -61q-59 -8 -95 -17.5t-73 -41.5t-37 -83z" />
<glyph unicode="&#xe3;" horiz-adv-x="1110" d="M53 295q0 74 33 139q27 51 67 89t91 59.5t86 31t86 19.5q221 45 317 76q0 27 -4 47t-18.5 49t-53.5 44t-98 15q-133 0 -182 -65q-25 -31 -25 -90l-252 14q8 92 41 154q98 178 408 178q197 0 307 -66q82 -49 102.5 -112.5t20.5 -167.5v-543q0 -66 7 -94.5t38 -71.5h-291 q-6 74 -6 80q-123 -104 -303 -105q-168 0 -269.5 91.5t-101.5 228.5zM199 1196q10 100 49 160q63 98 164 98q61 0 145 -33q111 -43 143 -43q20 0 39 11q23 12 37 57h158q-12 -78 -16 -90q-18 -63 -65.5 -112.5t-123.5 -49.5q-55 0 -178 47q-88 33 -119 33q-57 0 -74 -78 h-159zM313 307q0 -59 45 -90t121 -31q88 0 153.5 35t86.5 84q14 31 14 92v113q-78 -39 -215 -61q-59 -8 -95 -17.5t-73 -41.5t-37 -83z" />
<glyph unicode="&#xe4;" horiz-adv-x="1110" d="M53 295q0 74 33 139q27 51 67 89t91 59.5t86 31t86 19.5q221 45 317 76q0 27 -4 47t-18.5 49t-53.5 44t-98 15q-133 0 -182 -65q-25 -31 -25 -90l-252 14q8 92 41 154q98 178 408 178q197 0 307 -66q82 -49 102.5 -112.5t20.5 -167.5v-543q0 -66 7 -94.5t38 -71.5h-291 q-6 74 -6 80q-123 -104 -303 -105q-168 0 -269.5 91.5t-101.5 228.5zM219 1202v244h232v-244h-232zM313 307q0 -59 45 -90t121 -31q88 0 153.5 35t86.5 84q14 31 14 92v113q-78 -39 -215 -61q-59 -8 -95 -17.5t-73 -41.5t-37 -83zM631 1202v244h231v-244h-231z" />
<glyph unicode="&#xe5;" horiz-adv-x="1110" d="M53 295q0 74 33 139q27 51 67 89t91 59.5t86 31t86 19.5q221 45 317 76q0 27 -4 47t-18.5 49t-53.5 44t-98 15q-133 0 -182 -65q-25 -31 -25 -90l-252 14q8 92 41 154q98 178 408 178q197 0 307 -66q82 -49 102.5 -112.5t20.5 -167.5v-543q0 -66 7 -94.5t38 -71.5h-291 q-6 74 -6 80q-123 -104 -303 -105q-168 0 -269.5 91.5t-101.5 228.5zM313 307q0 -59 45 -90t121 -31q88 0 153.5 35t86.5 84q14 31 14 92v113q-78 -39 -215 -61q-59 -8 -95 -17.5t-73 -41.5t-37 -83zM336 1356q0 86 61.5 147.5t147.5 61.5t147.5 -61.5t61.5 -147.5 t-61.5 -147.5t-147.5 -61.5t-147.5 61.5t-61.5 147.5zM459 1356q0 -35 25.5 -60.5t60.5 -25.5t60.5 25.5t25.5 60.5t-25.5 60.5t-60.5 25.5t-60.5 -25.5t-25.5 -60.5z" />
<glyph unicode="&#xe6;" horiz-adv-x="1792" d="M59 279q0 74 32 132t71 92t110.5 62.5t111.5 38.5t112 27q190 41 249 65q0 25 -2 41.5t-13 45t-29.5 47t-56.5 33t-91 14.5q-197 0 -207 -166h-237q18 178 130.5 261t290.5 83q104 0 182.5 -23.5t109 -47t67.5 -64.5q43 41 76.5 64.5t102.5 47t153 23.5q260 0 397 -185 q111 -154 115 -405h-748q8 -121 78 -199t197 -78q63 0 115 26t75 48.5t57 65.5l197 -121q-188 -238 -481 -238q-211 0 -379 152q-57 -47 -101.5 -76t-124 -52.5t-176.5 -23.5q-174 0 -266 72q-117 88 -117 238zM319 285q0 -59 45.5 -97t129.5 -38q94 0 149 44t76 97 q18 43 26 201q-63 -27 -251 -66q-35 -6 -56.5 -13t-53.5 -21.5t-48.5 -42t-16.5 -64.5zM987 641h455q-20 106 -83 160.5t-147 54.5q-96 0 -156.5 -60.5t-68.5 -154.5z" />
<glyph unicode="&#xe7;" horiz-adv-x="1024" d="M49 512q0 233 148.5 388t369.5 155q172 0 281.5 -88t159.5 -203l-220 -102q-18 66 -76.5 120t-154.5 54q-111 0 -182.5 -84t-71.5 -234q0 -141 69.5 -230t188.5 -89q168 0 248 200l209 -110q-31 -92 -100 -166q-49 -53 -107.5 -85t-95.5 -41t-109 -22l-53 -69 q78 6 142.5 -27t64.5 -102q0 -158 -316 -158q-41 0 -86 4v64q14 -4 33 -4q131 0 131 53q0 49 -135 49q-27 0 -41 -2v29l158 163q-70 12 -109 22.5t-98 42.5t-107 85q-141 154 -141 387z" />
<glyph unicode="&#xe8;" d="M70 516q0 252 143 395.5t367 143.5q94 0 171.5 -23.5t126 -62.5t70 -61.5t35.5 -45.5q98 -141 104 -399h-757q23 -123 96.5 -188.5t194.5 -65.5q166 0 266 141l209 -121q-195 -260 -500 -260q-219 0 -372.5 140.5t-153.5 406.5zM285 1448h301l106 -274h-182zM338 643h479 q-31 215 -229 215q-205 0 -250 -215z" />
<glyph unicode="&#xe9;" d="M70 516q0 252 143 395.5t367 143.5q94 0 171.5 -23.5t126 -62.5t70 -61.5t35.5 -45.5q98 -141 104 -399h-757q23 -123 96.5 -188.5t194.5 -65.5q166 0 266 141l209 -121q-195 -260 -500 -260q-219 0 -372.5 140.5t-153.5 406.5zM338 643h479q-31 215 -229 215 q-205 0 -250 -215zM471 1174l102 272h304l-222 -272h-184z" />
<glyph unicode="&#xea;" d="M70 516q0 252 143 395.5t367 143.5q94 0 171.5 -23.5t126 -62.5t70 -61.5t35.5 -45.5q98 -141 104 -399h-757q23 -123 96.5 -188.5t194.5 -65.5q166 0 266 141l209 -121q-195 -260 -500 -260q-219 0 -372.5 140.5t-153.5 406.5zM229 1171l228 275h241l228 -275h-250 l-96 138l-103 -138h-248zM338 643h479q-31 215 -229 215q-205 0 -250 -215z" />
<glyph unicode="&#xeb;" d="M70 516q0 252 143 395.5t367 143.5q94 0 171.5 -23.5t126 -62.5t70 -61.5t35.5 -45.5q98 -141 104 -399h-757q23 -123 96.5 -188.5t194.5 -65.5q166 0 266 141l209 -121q-195 -260 -500 -260q-219 0 -372.5 140.5t-153.5 406.5zM256 1202v244h231v-244h-231zM338 643h479 q-31 215 -229 215q-205 0 -250 -215zM668 1202v244h231v-244h-231z" />
<glyph unicode="&#xec;" horiz-adv-x="512" d="M-37 1448h301l107 -274h-183zM133 0v1024h244v-1024h-244z" />
<glyph unicode="&#xed;" horiz-adv-x="512" d="M133 0v1024h244v-1024h-244zM150 1174l102 272h303l-221 -272h-184z" />
<glyph unicode="&#xee;" horiz-adv-x="512" d="M-92 1171l227 275h242l227 -275h-250l-96 138l-102 -138h-248zM133 0v1024h244v-1024h-244z" />
<glyph unicode="&#xef;" horiz-adv-x="512" d="M-66 1202v244h232v-244h-232zM133 0v1024h244v-1024h-244zM346 1202v244h232v-244h-232z" />
<glyph unicode="&#xf0;" horiz-adv-x="1193" d="M72 522q0 242 147.5 388.5t343.5 146.5q121 0 209 -76q-25 104 -100 203l-336 -90l-39 108l293 80l-96 96l229 99q55 -55 115 -127l190 51l41 -109l-158 -43q215 -324 215 -671q0 -201 -65 -332q-135 -274 -453 -275q-119 0 -215 36t-154.5 93.5t-97.5 132t-54 146 t-15 143.5zM328 524q0 -154 80.5 -240.5t197.5 -86.5q127 0 196.5 95t65.5 228q-4 135 -77.5 224.5t-196.5 89.5q-115 0 -190.5 -84.5t-75.5 -225.5z" />
<glyph unicode="&#xf1;" d="M129 0v1024h248v-121q33 47 80 80q98 72 235 72q84 0 157 -35t112 -88q31 -41 45 -98.5t16 -101.5t2 -130v-602h-244v522q0 127 -8 156q-35 137 -168 137q-59 0 -110.5 -31.5t-77.5 -83.5q-39 -76 -39 -256v-444h-248zM219 1196q10 100 49 160q63 98 164 98q61 0 146 -33 q111 -43 143 -43q20 0 39 11q23 12 37 57h157q-12 -78 -16 -90q-18 -63 -65.5 -112.5t-122.5 -49.5q-55 0 -179 47q-88 33 -118 33q-57 0 -74 -78h-160z" />
<glyph unicode="&#xf2;" horiz-adv-x="1193" d="M72 516q0 236 146.5 387.5t375.5 151.5q223 0 375.5 -146.5t154.5 -392.5q0 -240 -144 -393.5t-376 -153.5q-238 0 -385 154.5t-147 392.5zM305 1448h301l107 -274h-183zM328 522q0 -152 79.5 -239.5t196.5 -87.5q127 0 196.5 95t65.5 230q-4 133 -76.5 223.5 t-197.5 90.5q-117 0 -190.5 -86.5t-73.5 -225.5z" />
<glyph unicode="&#xf3;" horiz-adv-x="1193" d="M72 516q0 236 146.5 387.5t375.5 151.5q223 0 375.5 -146.5t154.5 -392.5q0 -240 -144 -393.5t-376 -153.5q-238 0 -385 154.5t-147 392.5zM328 522q0 -152 79.5 -239.5t196.5 -87.5q127 0 196.5 95t65.5 230q-4 133 -76.5 223.5t-197.5 90.5q-117 0 -190.5 -86.5 t-73.5 -225.5zM492 1174l102 272h303l-221 -272h-184z" />
<glyph unicode="&#xf4;" horiz-adv-x="1193" d="M72 516q0 236 146.5 387.5t375.5 151.5q223 0 375.5 -146.5t154.5 -392.5q0 -240 -144 -393.5t-376 -153.5q-238 0 -385 154.5t-147 392.5zM250 1171l227 275h242l227 -275h-250l-96 138l-102 -138h-248zM328 522q0 -152 79.5 -239.5t196.5 -87.5q127 0 196.5 95 t65.5 230q-4 133 -76.5 223.5t-197.5 90.5q-117 0 -190.5 -86.5t-73.5 -225.5z" />
<glyph unicode="&#xf5;" horiz-adv-x="1193" d="M72 516q0 236 146.5 387.5t375.5 151.5q223 0 375.5 -146.5t154.5 -392.5q0 -240 -144 -393.5t-376 -153.5q-238 0 -385 154.5t-147 392.5zM240 1196q10 100 49 160q63 98 164 98q61 0 145 -33q111 -43 143 -43q20 0 39 11q23 12 37 57h158q-12 -78 -17 -90 q-18 -63 -65 -112.5t-123 -49.5q-55 0 -178 47q-88 33 -119 33q-57 0 -74 -78h-159zM328 522q0 -152 79.5 -239.5t196.5 -87.5q127 0 196.5 95t65.5 230q-4 133 -76.5 223.5t-197.5 90.5q-117 0 -190.5 -86.5t-73.5 -225.5z" />
<glyph unicode="&#xf6;" horiz-adv-x="1193" d="M72 516q0 236 146.5 387.5t375.5 151.5q223 0 375.5 -146.5t154.5 -392.5q0 -240 -144 -393.5t-376 -153.5q-238 0 -385 154.5t-147 392.5zM279 1202v244h231v-244h-231zM328 522q0 -152 79.5 -239.5t196.5 -87.5q127 0 196.5 95t65.5 230q-4 133 -76.5 223.5 t-197.5 90.5q-117 0 -190.5 -86.5t-73.5 -225.5zM690 1202v244h232v-244h-232z" />
<glyph unicode="&#xf7;" horiz-adv-x="1366" d="M0 489v211h1364v-211h-1364zM543 264.5q0 59.5 40 99t99 39.5t99 -39.5t40 -99t-40 -99.5t-99 -40t-99 40t-40 99.5zM543 925.5q0 57.5 40 98.5t99 41t99 -41t40 -98.5t-40 -98.5t-99 -41t-99 41t-40 98.5z" />
<glyph unicode="&#xf8;" horiz-adv-x="1193" d="M18 162l117 90q-74 121 -74 266q0 219 144.5 378t388.5 159q211 0 367 -140l104 84l92 -114l-113 -90q76 -139 76 -287q0 -98 -30.5 -190.5t-92 -172t-169 -128t-246.5 -48.5q-131 0 -209 40t-154 118l-110 -86zM305 520q0 -57 14 -119l461 369q-68 84 -190 84 q-39 0 -82 -14.5t-91 -47t-80 -103.5t-32 -169zM395 272q80 -100 203 -100q41 0 85 15.5t91 49t77 102.5t30 161q0 80 -27 141z" />
<glyph unicode="&#xf9;" horiz-adv-x="1193" d="M127 432v592h248v-588q0 -76 8 -102q39 -129 190 -129q131 0 199 108q27 47 33 101.5t8 175.5v434h246v-1024h-246v104q-135 -129 -332 -129q-193 0 -284 119q-33 41 -49.5 96.5t-18.5 100.5t-2 141zM305 1448h301l107 -274h-183z" />
<glyph unicode="&#xfa;" horiz-adv-x="1193" d="M127 432v592h248v-588q0 -76 8 -102q39 -129 190 -129q131 0 199 108q27 47 33 101.5t8 175.5v434h246v-1024h-246v104q-135 -129 -332 -129q-193 0 -284 119q-33 41 -49.5 96.5t-18.5 100.5t-2 141zM492 1174l102 272h303l-221 -272h-184z" />
<glyph unicode="&#xfb;" horiz-adv-x="1193" d="M127 432v592h248v-588q0 -76 8 -102q39 -129 190 -129q131 0 199 108q27 47 33 101.5t8 175.5v434h246v-1024h-246v104q-135 -129 -332 -129q-193 0 -284 119q-33 41 -49.5 96.5t-18.5 100.5t-2 141zM250 1171l227 275h242l227 -275h-250l-96 138l-102 -138h-248z" />
<glyph unicode="&#xfc;" horiz-adv-x="1193" d="M127 432v592h248v-588q0 -76 8 -102q39 -129 190 -129q131 0 199 108q27 47 33 101.5t8 175.5v434h246v-1024h-246v104q-135 -129 -332 -129q-193 0 -284 119q-33 41 -49.5 96.5t-18.5 100.5t-2 141zM272 1202v244h232v-244h-232zM684 1202v244h231v-244h-231z" />
<glyph unicode="&#xfd;" horiz-adv-x="980" d="M25 1024h264l227 -764l195 764h252l-261 -893l-57 -192q-53 -164 -123.5 -227.5t-212.5 -63.5q-61 0 -147 12v215q35 -6 65 -6q72 0 111 27q20 14 38.5 40.5t18.5 43.5zM383 1174l102 272h303l-221 -272h-184z" />
<glyph unicode="&#xfe;" horiz-adv-x="1193" d="M133 -334v1780h244v-516q119 125 280 125q215 0 340 -164t125 -389q0 -231 -131 -382t-332 -151q-158 0 -282 115v-418h-244zM375 518.5q-2 -151.5 69.5 -234.5t180.5 -83q102 0 174.5 76.5t72.5 236.5q0 90 -27.5 154.5t-71.5 95.5t-82 43t-70 12q-96 0 -170 -74.5 t-76 -226z" />
<glyph unicode="&#xff;" horiz-adv-x="980" d="M25 1024h264l227 -764l195 764h252l-261 -893l-57 -192q-53 -164 -123.5 -227.5t-212.5 -63.5q-61 0 -147 12v215q35 -6 65 -6q72 0 111 27q20 14 38.5 40.5t18.5 43.5zM168 1202v244h231v-244h-231zM580 1202v244h231v-244h-231z" />
<glyph unicode="&#x152;" horiz-adv-x="2260" d="M96 694q0 186 61.5 340t163 250t225.5 147.5t253 51.5q168 0 329 -99v62h1031v-246h-762v-346h665v-233h-665v-377h809v-244h-1078v51q-170 -88 -352 -88q-295 0 -485 205q-195 207 -195 526zM383 700q0 -242 126 -369.5t312 -127.5q76 0 139.5 21.5t97.5 53t52 60.5 t18 47v545q0 119 -20 153q-35 55 -114 99.5t-183 44.5q-178 0 -303 -135.5t-125 -391.5z" />
<glyph unicode="&#x153;" horiz-adv-x="1878" d="M70 502q0 244 143 398.5t367 154.5q211 0 362 -154q172 154 361 154q123 0 227 -49q102 -53 172 -152q45 -61 69.5 -140t30.5 -128t10 -133h-735q18 -121 86 -193t180 -72q154 0 248 140l199 -121q-37 -55 -104 -113q-154 -125 -357 -125q-250 0 -377 185 q-135 -184 -381 -185q-244 0 -372.5 153t-128.5 380zM317 510q0 -129 66 -223t197 -94q109 0 185.5 77.5t76.5 233.5q-2 156 -78 238.5t-189 82.5q-121 0 -189.5 -91t-68.5 -224zM1077 629h451q-18 96 -78.5 154.5t-149.5 58.5q-92 0 -149.5 -58.5t-73.5 -154.5z" />
<glyph unicode="&#x178;" horiz-adv-x="1280" d="M20 1446h306l313 -600l317 600h301l-487 -875v-571h-266v571zM319 1581v252h230v-252h-230zM729 1581v252h234v-252h-234z" />
<glyph unicode="&#x2c6;" horiz-adv-x="555" d="M-70 1171l228 275h241l228 -275h-250l-96 138l-103 -138h-248z" />
<glyph unicode="&#x2dc;" horiz-adv-x="555" d="M-90 1196q10 100 49 160q63 98 164 98q61 0 145 -33q111 -43 144 -43q20 0 39 11q23 12 36 57h158q-12 -78 -16 -90q-18 -63 -65.5 -112.5t-123.5 -49.5q-55 0 -178 47q-88 33 -119 33q-57 0 -73 -78h-160z" />
<glyph unicode="&#x2000;" horiz-adv-x="985" />
<glyph unicode="&#x2001;" horiz-adv-x="1972" />
<glyph unicode="&#x2002;" horiz-adv-x="985" />
<glyph unicode="&#x2003;" horiz-adv-x="1972" />
<glyph unicode="&#x2004;" horiz-adv-x="657" />
<glyph unicode="&#x2005;" horiz-adv-x="491" />
<glyph unicode="&#x2006;" horiz-adv-x="327" />
<glyph unicode="&#x2007;" horiz-adv-x="327" />
<glyph unicode="&#x2008;" horiz-adv-x="245" />
<glyph unicode="&#x2009;" horiz-adv-x="393" />
<glyph unicode="&#x200a;" horiz-adv-x="108" />
<glyph unicode="&#x2010;" horiz-adv-x="724" d="M109 528v230h507v-230h-507z" />
<glyph unicode="&#x2011;" horiz-adv-x="724" d="M109 528v230h507v-230h-507z" />
<glyph unicode="&#x2012;" horiz-adv-x="724" d="M109 528v230h507v-230h-507z" />
<glyph unicode="&#x2013;" d="M86 528v228h979v-228h-979z" />
<glyph unicode="&#x2014;" horiz-adv-x="1449" d="M86 528v228h1278v-228h-1278z" />
<glyph unicode="&#x2018;" horiz-adv-x="425" d="M74 887v248q0 117 12 153q41 121 244 164v-121q-33 -6 -54.5 -16t-40 -48t-16.5 -100h127v-280h-272z" />
<glyph unicode="&#x2019;" horiz-adv-x="425" d="M82 1161v285h266v-254q0 -98 -6 -137t-37 -76q-68 -84 -209 -96v108q41 12 64.5 27.5t33 41t11.5 44t2 57.5h-125z" />
<glyph unicode="&#x201a;" horiz-adv-x="425" d="M80 0v285h266v-254q0 -96 -6 -136t-37 -77q-68 -84 -209 -97v109q41 12 64.5 27.5t33 41t11.5 44t2 57.5h-125z" />
<glyph unicode="&#x201c;" horiz-adv-x="768" d="M76 893v252q0 96 6 136t37 77q29 37 68.5 58.5t65.5 27.5t75 12v-108q-53 -16 -78 -43t-29 -51.5t-4 -77.5h125v-283h-266zM426 893v252q0 96 6 136t37 77q29 37 69 58.5t65.5 27.5t74.5 12v-108q-53 -16 -78 -43t-29 -51.5t-4 -77.5h125v-283h-266z" />
<glyph unicode="&#x201d;" horiz-adv-x="768" d="M76 1163v283h266v-252q0 -96 -6 -136t-37 -77q-29 -37 -69 -58.5t-65.5 -27.5t-74.5 -12v108q53 16 78 43t29 51.5t4 77.5h-125zM426 1163v283h266v-252q0 -96 -6 -136t-37 -77q-29 -37 -68.5 -58.5t-65.5 -27.5t-75 -12v108q53 16 78 43t29 51.5t4 77.5h-125z" />
<glyph unicode="&#x201e;" horiz-adv-x="768" d="M76 0v285h266v-254q0 -96 -6 -136t-37 -77q-68 -84 -209 -97v109q41 12 64.5 27.5t33 41t11.5 44t2 57.5h-125zM424 0v285h266v-254q0 -96 -6 -136t-37 -77q-68 -84 -209 -97v109q41 12 64.5 27.5t33 41t11.5 44t2 57.5h-125z" />
<glyph unicode="&#x2022;" horiz-adv-x="681" d="M49 721q0 119 86 205t205 86t205 -86t86 -205t-86 -205t-205 -86t-205 86t-86 205z" />
<glyph unicode="&#x2026;" horiz-adv-x="2048" d="M207 0v281h270v-281h-270zM889 0v281h270v-281h-270zM1571 0v281h270v-281h-270z" />
<glyph unicode="&#x202f;" horiz-adv-x="393" />
<glyph unicode="&#x2039;" horiz-adv-x="512" d="M115 500v288l291 234v-234l-177 -145l177 -143v-230z" />
<glyph unicode="&#x203a;" horiz-adv-x="512" d="M102 264v232l177 147l-177 141v232l291 -232v-288z" />
<glyph unicode="&#x205f;" horiz-adv-x="491" />
<glyph unicode="&#x2122;" horiz-adv-x="1406" d="M16 1327v119h570v-119h-209v-561h-146v561h-215zM643 766v680h188l164 -514l156 514h190v-680h-141l6 391l8 139l-30 -112l-127 -418h-129l-131 420l-31 108l10 -137l8 -391h-141z" />
<glyph unicode="&#xe000;" horiz-adv-x="1025" d="M0 1025h1025v-1025h-1025v1025z" />
<glyph unicode="&#xfb01;" d="M8 850v176h154v117q0 57 2 89t18.5 80t49 72.5t98 44t162.5 19.5q49 0 139 -8v-209q-31 6 -78 6q-49 0 -81 -12.5t-45 -37t-16 -46t-3 -56.5v-59h223v-176h-223v-850h-246v850h-154zM774 0v1026h244v-1026h-244zM774 1186v248h244v-248h-244z" />
<glyph unicode="&#xfb02;" d="M8 850v176h154v117q0 57 2 89t18.5 80t49 72.5t98 44t162.5 19.5q49 0 139 -8v-209q-31 6 -78 6q-49 0 -81 -12.5t-45 -37t-16 -46t-3 -56.5v-59h223v-176h-223v-850h-246v850h-154zM774 0v1448h248v-1448h-248z" />
<glyph unicode="&#xfb03;" horiz-adv-x="1794" d="M1415 0v1024h244v-1024h-244zM1415 1184v248h244v-248h-244zM649 850v176h154v117q0 57 2 89t18.5 80t49 72.5t98 44t162.5 19.5q49 0 139 -8v-209q-31 6 -78 6q-94 0 -129 -51q-16 -29 -16 -76v-84h223v-176h-223v-850h-246v850h-154zM8 850v176h154v117q0 57 2 89 t18.5 80t49 72.5t98 44t162.5 19.5q49 0 139 -8v-209q-31 6 -78 6q-94 0 -129 -51q-16 -29 -16 -76v-84h223v-176h-223v-850h-246v850h-154z" />
<glyph unicode="&#xfb04;" horiz-adv-x="1794" d="M1415 0v1446h248v-1446h-248zM649 850v176h154v117q0 57 2 89t18.5 80t49 72.5t98 44t162.5 19.5q49 0 139 -8v-209q-31 6 -78 6q-94 0 -129 -51q-16 -29 -16 -76v-84h223v-176h-223v-850h-246v850h-154zM8 850v176h154v117q0 57 2 89t18.5 80t49 72.5t98 44t162.5 19.5 q49 0 139 -8v-209q-31 6 -78 6q-94 0 -129 -51q-16 -29 -16 -76v-84h223v-176h-223v-850h-246v850h-154z" />
</font>
</defs>
</svg>
